A Simple Favor 2018 DVDRip x264 ESub [MW]

  • Category Movies
  • Type DVD
  • Language English
  • Total size 864.6 MB
  • Uploaded By moviezworldz
  • Downloads 0
  • Last checked 1 minute ago
  • Date uploaded 1 minute ago
  • Seeders 0
  • Leechers 0

Infohash : 387CCD318D583405BBADCEC55B9B05029645DD1D




General
Format : Matroska
Format version : Version 4 / Version 2
File size : 865 MiB
Duration : 1 h 56 min
Overall bit rate : 1 035 kb/s

Video
ID : 1
Format : AVC
Format/Info : Advanced Video Codec
Format profile : [email protected]
Format settings : CABAC / 4 Ref Frames
Format settings, CABAC : Yes
Format settings, RefFrames : 4 frames
Codec ID : V_MPEG4/ISO/AVC
Duration : 1 h 56 min
Bit rate : 900 kb/s
Width : 720 pixels
Height : 368 pixels
Display aspect ratio : 1.957
Frame rate mode : Constant
Frame rate : 23.976 (24000/1001) FPS
Color space : YUV
Chroma subsampling : 4:2:0
Bit depth : 8 bits
Scan type : Progressive
Bits/(Pixel*Frame) : 0.142
Stream size : 755 MiB (87%)
Writing library : x264 core 155 r2901 7d0ff22
Default : Yes
Forced : No

Audio
ID : 2
Format : AAC
Format/Info : Advanced Audio Codec
Format profile : LC
Codec ID : A_AAC-2
Duration : 1 h 56 min
Bit rate : 128 kb/s
Channel(s) : 2 channels
Channel positions : Front: L R
Sampling rate : 48.0 kHz
Frame rate : 46.875 FPS (1024 SPF)
Compression mode : Lossy
Stream size : 107 MiB (12%)
Language : English
Default : Yes
Forced : No

Text
ID : 3
Format : UTF-8
Codec ID : S_TEXT/UTF8
Codec ID/Info : UTF-8 Plain Text
Duration : 1 h 52 min
Bit rate : 94 b/s
Count of elements : 2520
Stream size : 77.9 KiB (0%)
Language : English
Default : Yes
Forced : No

Click To View Image







Files:

A Simple Favor 2018 DVDRip x264 ESub [MW]
  • A Simple Favor 2018 DVDRip x264 ESub [MW].mkv (864.6 MB)

There are currently no comments. Feel free to leave one :)

Code:

  • udp://tracker.coppersurfer.tk:6969/announce
  • udp://tracker.pirateparty.gr:6969/announce
  • udp://tracker.tiny-vps.com:6969/announce
  • udp://9.rarbg.to:2730/announce
  • udp://tracker.opentrackr.org:1337/announce
  • udp://tracker.leechers-paradise.org:6969/announce
  • udp://public.popcorn-tracker.org:6969/announce
  • udp://tracker.vanitycore.co:6969/announce
SitemapWisin Feat. Jennifer Lopez & Ricky Martin - Adrenalina. | Más detalles | DOWNLOAD